Кровавая барыня / Серии: 1-16 из 16 (Егор Анашкин) [2017, драма, история, HDTVRip]

Ответить на тему
 
Автор Сообщение

Хохрин ®

Пол: Мужской

Стаж: 6 лет 6 месяцев

Сообщений: 1168

Откуда: СССР

Создавать темы 05-Мар-2018 11:28

[Цитировать]

Кровавая барыня
Год выпуска: 2017
Производство: киностудия "Маркес"

Жанр: драма, история

Продолжительность: ~00:52:00 серия
Субтитры: нет
Режиссёр: Егор Анашкин
В ролях: Юлия Снигирь, Кристина Бабушкина, Северия Янушаускайте, Фёдор Лавров, Влад Соколовский, Юрий Цурило, Даниил Муравьев-Изотов, Пётр Рыков, Марта Тимофеева, Игорь Ясулович, Анна Гуляренко, Екатерина Копанова, Анастасия Зенкович, Валентин Варецкий, Михаил Васьков, Юрий Шлыков, Лилия Пысларь, Сергей Шеховцов

Описание: XVIII век. Российская империя. Начало царствования Екатерины II.Рассказ о судьбе печально известной русской помещицы Дарьи Салтыковой, прозванной в народе «Салтычихой».«Салтычиха» вошла в историю как одна из самых жестоких убийц. Ее имя стало олицетворением кровожадности и бесчеловечности. После таинственной смерти мужа Глеба Салтыкова, она заточила себя в подмосковном поместье Троицкое, где срывала зло на своих несчастных безропотных слугах. За несколько лет она замучила и убила более сотни подвластных ей крепостных крестьян. За свои преступления Дарья Салтыкова была лишена дворянского чина, права называться человеческим именем (впредь ее следовало называть «Оно)» и приговорена к пожизненному заключению в земляной яме.

Реклама: Нет.

Sample
Качество: HDTVRip - Files-x
Формат: AVI
Видео кодек: XviD
Аудио кодек: AC3
Видео: 720x304 (2.35:1), 25 fps, XviD build 73 ~1550 kbps avg, 0.283 bit/pixel
Аудио: 48.0 kHz, AC3 Dolby Digital, 2/0 (L,R) ch, ~ 192 kbps
Внимание! Раздача ведётся путём добавления новых серий
Раздача ведётся путём добавления новых серий, при каждом добавлении создаётся новый торрент. Чтобы начать докачку новой серии, пользователям необходимо сделать следующее:
- Остановить скачивание.
- Удалить старый торрент у себя из клиента (старые серии удалять не надо).
- Скачать новый торрент и запустить его у себя в клиенте вместо старого, при этом указать клиенту путь в старую папку куда и должно происходить скачивание новых серий.
Ваш клиент при этом должен произвести хеширование (проверку) старой папки (если не производит сам - помогите ему сделать это), и будет докачивать только те серии которых у вас ещё нет. Старые серии при этом не удаляются, а продолжают раздаваться!
Если вы уже удалили старые серии, то предотвратить повторную закачку старых серий можно, отжав галочку в соответствующих местах при запуске нового торрента. По возможности, желательно не удалять старые серии как можно дольше, чтобы релизер не столько продолжал раздавать старые серии, а смог сконцентрироваться на новых.
MI
General
Complete name : D:\Krovavaya.barynya.2017.HDTVRip.Files-x\01.Krovavaya.barynya.2017.HDTVRip.Files-x.avi
Format : AVI
Format/Info : Audio Video Interleave
File size : 652 MiB
Duration : 52mn 7s
Overall bit rate : 1 749 Kbps
Writing application : VirtualDubMod 1.5.10.3 | www.virtualdub-fr.org || (build 2550/release)
Writing library : VirtualDubMod build 2550/release
Video
ID : 0
Format : MPEG-4 Visual
Format profile : Advanced Simple@L5
Format settings, BVOP : 1
Format settings, QPel : No
Format settings, GMC : No warppoints
Format settings, Matrix : Custom
Codec ID : XVID
Codec ID/Hint : XviD
Duration : 52mn 7s
Bit rate : 1 547 Kbps
Width : 720 pixels
Height : 304 pixels
Display aspect ratio : 2.35:1
Frame rate : 25.000 fps
Color space : YUV
Chroma subsampling : 4:2:0
Bit depth : 8 bits
Scan type : Progressive
Compression mode : Lossy
Bits/(Pixel*Frame) : 0.283
Stream size : 577 MiB (88%)
Writing library : XviD 73
Audio
ID : 1
Format : AC-3
Format/Info : Audio Coding 3
Mode extension : CM (complete main)
Format settings, Endianness : Big
Codec ID : 2000
Duration : 52mn 7s
Bit rate mode : Constant
Bit rate : 192 Kbps
Channel count : 2 channels
Channel positions : Front: L R
Sampling rate : 48.0 KHz
Bit depth : 16 bits
Compression mode : Lossy
Stream size : 71.6 MiB (11%)
Alignment : Split accross interleaves
Interleave, duration : 40 ms (1.00 video frame)
Interleave, preload duration : 500 ms
Скриншоты
-
Если вы не можете скачать раздачу:

Если закачка не идет, добавьте в свой торрент следующие адреса пиров 10.154.25.74:59610
-
[Профиль] [ЛС]

Somon0909

Пол: Не указан

Стаж: 7 месяцев 23 дня

Сообщений: 5

Создавать темы 05-Мар-2018 11:49 (спустя 21 минута)

[Цитировать]

Некого нет в раздаче, встаньте в раздачу.
[Профиль] [ЛС]
Показать сообщения:    
Ответить на тему

Текущее время: 25-Авг 07:05

Часовой пояс: UTC + 3



Вы не можете начинать темы
Вы не можете отвечать на сообщения
Вы не можете редактировать свои сообщения
Вы не можете удалять свои сообщения
Вы не можете голосовать в опросах
Вы не можете прикреплять файлы к сообщениям
Вы не можете скачивать файлы
Sitemap