Агент / Серии: 1-16 из 16 (Георгий Гаврилов, Дмитрий Кузьмин) [2013, Детектив, приключения, SATRip]

Ответить на тему
 
Автор Сообщение

Mithas204 ®

Пол: Мужской

Стаж: 8 лет 8 месяцев

Сообщений: 13730

Откуда: Душанбе, Курган-Тюбе

Создавать темы 21-Авг-2018 17:41

[Цитировать]

Агент
Год выпуска: 2013
Производство: Россия, «АРТ-БАЗАР»
Жанр: Детектив, приключения
Продолжительность: ~ 00:43:00
Субтитры: нет
Режиссёр: Георгий Гаврилов, Дмитрий Кузьмин
В ролях: Юрий Беляев, Алексей Серебряков, Агния Дитковските, Ада Роговцева, Татьяна Лютаева, Ольга Сумская, Илья Шакунов
Описание: Секретному агенту спецслужб Андрею Козыреву (Алексей Серебряков) по прозвищу Американец, несправедливо осужденному за убийство, однажды выпадает шанс изменить свою жизнь. Он совершает дерзкий побег из колонии, чтобы разыскать своего врага, доказать свою невиновность и спасти мир от нового смертельного вируса, грозящего гибелью миллионам людей. Несколько лет назад Андрей Козырев и его начальник генерал Данилов (Юрий Беляев) разрабатывали дело о новом мощном управляемом вирусе. В ходе расследования они выяснили, что производством вируса занимался их бывший коллега – некто Самсонов (Илья Шакунов). Но остановить безжалостного экспериментатора офицеры не успели. Самсонов совершил покушение, в результате которого погибли жена и дочь Козырева. Вскоре при взрыве погиб и сам Самсонов, а Козырев, оказавшийся главным подозреваемым, был осужден за его убийство на 15 лет...
Огромное спасибо posters-ks за предоставленный постер.
Сэмпл
Качество: SATRip
Формат: AVI
Видео кодек: XviD
Аудио кодек: МР3
Видео: 720x400 (1.80:1), 25 fps, XviD build 50 ~1669 kbps avg, 0.23 bit/pixel
Аудио: 48 kHz, MPEG Layer 3, 2 ch, ~192.00 kbps avg
Релиз от:
MI
General
Complete name : V:\ftp4\Videos\Agent.2013.SATRip.Files-x\Agent.01.seriya.2013.SATRip.Files-x.avi
Format : AVI
Format/Info : Audio Video Interleave
File size : 550 MiB
Duration : 41mn 5s
Overall bit rate : 1 872 Kbps
Writing application : VirtualDubMod 1.5.10.3 | www.virtualdub-fr.org || (build 2550/release)
Writing library : VirtualDubMod build 2550/release
Video
ID : 0
Format : MPEG-4 Visual
Format profile : Advanced Simple@L5
Format settings, BVOP : 1
Format settings, QPel : No
Format settings, GMC : No warppoints
Format settings, Matrix : Default (H.263)
Codec ID : XVID
Codec ID/Hint : XviD
Duration : 41mn 5s
Bit rate : 1 670 Kbps
Width : 720 pixels
Height : 400 pixels
Display aspect ratio : 16:9
Frame rate : 25.000 fps
Color space : YUV
Chroma subsampling : 4:2:0
Bit depth : 8 bits
Scan type : Progressive
Compression mode : Lossy
Bits/(Pixel*Frame) : 0.232
Stream size : 491 MiB (89%)
Writing library : XviD 1.2.1 (UTC 2008-12-04)
Audio
ID : 1
Format : MPEG Audio
Format version : Version 1
Format profile : Layer 3
Codec ID : 55
Codec ID/Hint : MP3
Duration : 41mn 4s
Bit rate mode : Constant
Bit rate : 192 Kbps
Channel(s) : 2 channels
Sampling rate : 48.0 KHz
Compression mode : Lossy
Stream size : 56.4 MiB (10%)
Alignment : Aligned on interleaves
Interleave, duration : 40 ms (1.00 video frame)
Interleave, preload duration : 504 ms
Writing library : LAME3.98r
Encoding settings : -m s -V 4 -q 2 -lowpass 18.6 -b 192
Скриншоты
Раздача ведется путем добавления новых серий
Внимание! Раздача ведётся путём добавления новых серий; при каждом добавлении создётся новый торрент. Чтобы начать докачку новой серии, пользователям необходимо сделать следующее:
(1) остановить скачивание,
(2) удалить старый торрент у себя из клиента (старые серии удалять не надо),
(3) скачать новый торрент и запустить его у себя в клиенте вместо старого, при этом указать клиенту путь в старую папку куда и должно происходить скачивание новых серий.
Ваш клиент при этом должен произвести хеширование (проверку) старой папки (если не производит сам - помогите ему сделать это), и будет докачивать только те серии которых у вас ещё нет. Старые серии при этом не удаляются, а продолжают раздаваться!
Eсли вы уже удалили старые серии, то предотвратить повторную закачку старых серий можно, отжав галочку в соответствующих местах при запуске нового торрента.
[Профиль] [ЛС]
Показать сообщения:    
Ответить на тему

Текущее время: 25-Авг 05:21

Часовой пояс: UTC + 3



Вы не можете начинать темы
Вы не можете отвечать на сообщения
Вы не можете редактировать свои сообщения
Вы не можете удалять свои сообщения
Вы не можете голосовать в опросах
Вы не можете прикреплять файлы к сообщениям
Вы не можете скачивать файлы
Sitemap