Динозавр / Dinosaur (Серия 1-10 из 10)(Евгений Серов, Всеволод Аравин, Олег Компасов) [2018, Комедия, триллер, детектив, криминал, мелодрама , WEB-DLRip-AVC][400p][DD5.1]

Ответить на тему
 
Автор Сообщение

Nikolai.Baranov ®

Пол: Мужской

Стаж: 1 год 4 месяца

Сообщений: 93

Откуда: КРАСНОГОРСК

Создавать темы 13-Окт-2018 17:44

[Цитировать]

--Динозавр / Dinosaur Серии 1-10 из 10 - Полный Комплект -- --Год выпуска: 2018
Выпущено: Россия , , Продюсерский центр Сергея Жигунова
Жанр:Комедия, триллер, детектив, криминал, мелодрама
Продолжительность: 00:47:00
Серия: 1-10
Количество серий в сезоне: 10
Озвучка : -Русский --Релиз Без Рекламы--Кинопоиск--Режиссер:
Евгений Серов, Всеволод Аравин, Олег Компасов--В ролях: Андрей Смирнов, Александр Панкратов-Чёрный, Евгений Миллер, Анна Васильева, Максим Литовченко, Михаил Евланов, Ольга Тумайкина, Илья Любимов, Сергей Епишев, Александр Берда, Илья Ильин, Роман Полянский, Александра Мареева, Ольга Филиппова, Юрий Чурсин, Елена Сафонова, Геннадий Яковлев, Сергей Жигунов, Валерий Новиков, Александр Вдовин, Юрий Сысоев (I), Светлана Немоляева, Галина Петрова, Борис Смолкин, Борис Невзоров, Иван Лакшин, Борис Токарев, Сергей Сосновский, Михаил Горский-- Престарелый криминальный авторитет Семен Тимофеевич Бабушкин, о чьем воровском таланте в свое время слагали легенды, последние 35 лет герой не выходил из тюрьмы, предпочитая ее свободе, где у него не осталось ни друзей, ни родных.
Но однажды Бабушкин получает письмо, из которого узнает, что у него, оказывается, все-таки есть на воле кровиночка, сын Слава. По иронии судьбы, младший Бабушкин служит следователем в органах, но в настоящее время нуждается в помощи — его серьезно подставили, и под угрозой оказалась не только его жизнь, но и безопасность его дочери. Тогда благородный бандит принимается налаживать свои старые связи и навыки, чтобы вытащить новоявленную семью из беды.
-- --Качество : WEB-DLRip-AVC 400p
Формат: MKV
Видео кодек: H264
Видео: 1503Кбит/сек,720х400(16.9),в 25.000кадр/сек,,MPEG-4 Visual(XviD)--Аудио Кодек:AC3
Аудио #1:AC3 , 384 Kbps, 48.0 KHz, 6 ch-Русский--
MediaInfo
Общее
Уникальный идентификатор : 3466559874392305443650581207958550166 (0x29BA298F7DF92EA97D9397EA495F696)
Полное имя : E:\Nikolai.Baranov & PIRATIYA\Динозавр - Dinosaur\DINOSAUR_2018_S01_Н264_DD5.1_N.B_WEBRip_400р_Rus\Dinosaur_2018_S01Е01Е02_Н264_DD5.1_N.B_WEBRip_400р_Rus.mkv
Формат : Matroska
Версия формата : Version 4
Размер файла : 1,20 Гбайт
Продолжительность : 1 ч. 31 м.
Общий поток : 1889 Кбит/сек
Название фильма : Dinosaur 2018 Е01Е02 @ Nikolai.Baranov & PIRATIYA
Дата кодирования : UTC 2018-10-13 08:43:42
Программа кодирования : mkvmerge v27.0.0 ('Metropolis') 64-bit
Библиотека кодирования : libebml v1.3.6 + libmatroska v1.4.9
Видео
Идентификатор : 1
Формат : MPEG-4 Visual
Профиль формата : Advanced Simple@L5
Настройки формата : BVOP1 / Custom Matrix
Параметр BVOP формата : 1
Параметр QPel формата : Нет
Параметр GMC формата : Без точки перехода
Параметр матрицы формата : Выборочная
Идентификатор кодека : V_MS/VFW/FOURCC / XVID
Идентификатор кодека/Подсказка : XviD
Продолжительность : 1 ч. 31 м.
Битрейт : 1503 Кбит/сек
Ширина : 720 пикселей
Высота : 400 пикселей
Соотношение сторон : 16:9
Режим частоты кадров : Постоянный
Частота кадров : 25,000 кадров/сек
Цветовое пространство : YUV
Субдискретизация насыщенности : 4:2:0
Битовая глубина : 8 бит
Тип развёртки : Прогрессивная
Метод сжатия : С потерями
Бит/(Пиксели*Кадры) : 0.209
Размер потока : 981 Мбайт (80%)
Заголовок : Dinosaur_2018_S01Е01Е02_Н264_DD5.1_N.B_WEBRip_400р_Rus
Библиотека кодирования : XviD 73
Язык : Russian
Default : Да
Forced : Нет
Аудио
Идентификатор : 2
Формат : AC-3
Формат/Информация : Audio Coding 3
Коммерческое название : Dolby Digital
Идентификатор кодека : A_AC3
Продолжительность : 1 ч. 31 м.
Вид битрейта : Постоянный
Битрейт : 384 Кбит/сек
Каналы : 6 каналов
Channel layout : L R C LFE Ls Rs
Частота : 48,0 КГц
Частота кадров : 31,250 кадров/сек (1536 SPF)
Битовая глубина : 16 бит
Метод сжатия : С потерями
Размер потока : 250 Мбайт (20%)
Заголовок : Russian @DD5.1 AC3, 384 Kbps, 48.0 KHz, 6 ch
Язык : Russian
ServiceKind/String : Complete Main
Default : Да
Forced : Нет
Меню
00:00:00.000 : :Глава 01 / :Глава 01
--
Скриншоты
-- --
Как закачать отдельный файл
1. Открыть торрент
2. Снять галки с тех файлов торрента, которые мы не хотим закачивать. Оставляем только на нужных нам файлах (файле).
3. Нажать О.К.
В клиенте utorrent
Инструкция
1) Открыть торрент

2) Снять галки с тех файлов торрента, которые мы не хотим закачивать:
* либо вручную, снимая с каждого файла галку( скрин №1)
* либо, нажав кнопку "Снять метки (Select None)", сняв сразу со всех файлов(скрин №2)
№1

№2

Оставляем только на нужных нам файлах (файле).

3)Нажать О.К
-- -- --Релиз от: Nikolai.Baranov & PIRATIYA:Поблагодарить:
ЯД: 410017546713876
-- -- -- --Время раздачи : 24/7--
[Профиль] [ЛС]
Показать сообщения:    
Ответить на тему

Текущее время: 02-Ноя 15:30

Часовой пояс: UTC + 3



Вы не можете начинать темы
Вы не можете отвечать на сообщения
Вы не можете редактировать свои сообщения
Вы не можете удалять свои сообщения
Вы не можете голосовать в опросах
Вы не можете прикреплять файлы к сообщениям
Вы не можете скачивать файлы
Sitemap