Ялта-45 / Сезон: 1 / Серии: 1-4 из 4 ( Тигран Кеосаян) [2011, боевик, военный фильм, шпионский фильм, WEBRip]

Ответить на тему
 
Автор Сообщение

Хохрин ®

Пол: Мужской

Стаж: 6 лет 6 месяцев

Сообщений: 1168

Откуда: СССР

Создавать темы 05-Мар-2018 09:03

[Цитировать]

Ялта-45
-
Год выпуска: 2011
Производство: «Арт-Базар Синема" по заказу "Централ Партнершип»
Жанр: Боевик, военный фильм, шпионский фильм
Продолжительность: ~ 46 мин.
Субтитры: Отсутствуют-Режиссер: Тигран Кеосаян-В ролях: Александр Голубев, Евгений Миллер, Максим Матвеев, Алёна Хмельницкая, Кристина Бабушкина, Михаил Евланов, Екатерина Кузнецова (II), Александр Феклистов, Александр Коршунов, Алексей Девотченко, Борис Каморзин, Валерий Зайцев, Виктор Добронравов, Иван Добронравов, Владимир Капустин, Николай Козак, Семен Почивалов, Игорь Савочкин, Егор (Георгий) Сальников, Сергей Фролов и др.-Описание: Январь 1945 года. В Ялте полным ходом идет подготовка к встрече лидеров антигитлеровской коалиции: Сталина, Рузвельта и Черчилля. Спецслужбы союзников работают сообща, чтобы обеспечить первым лицам полную безопасность. Тревожатся они не зря: в городе действительно затаилась группа диверсантов, планирующая теракт. На их след выходят контрразведчик Турок, местный следователь Жора Макаров и майор американской разведки Джон Уилби.
-
Релиз группы
-Семпл
Кино-Театр-Качество: WEBRip
Формат: AVI
Видео кодек: XviD
Аудио кодек: AC3
Видео: 720x400 (1.80:1), 25 fps, XviD build 73 ~1932 kbps avg, 0.27 bit/pixel
Аудио: 48 kHz, AC3 Dolby Digital, 2/0 (L,R) ch, ~192.00 kbps avg
MediaInfo
Общее
Полное имя                               : D:\Ялта-45\Yalta.45.S01E02.2011.WEBRip.RG.Russkie.serialy..avi
Формат                                   : AVI
Формат/Информация                        : Audio Video Interleave
Размер файла                             : 740 Мбайт
Продолжительность                        : 48 м. 29 с.
Общий поток                              : 2135 Кбит/сек
Программа кодирования                    : VirtualDubMod 1.5.10.3 | www.virtualdub-fr.org || (build 2550/release)
Библиотека кодирования                   : VirtualDubMod build 2550/release
Видео
Идентификатор                            : 0
Формат                                   : MPEG-4 Visual
Профиль формата                          : Advanced Simple@L5
Настройки формата                        : BVOP2 / Custom Matrix
Параметр BVOP формата                    : 2
Параметр QPel формата                    : Нет
Параметр GMC формата                     : Без точки перехода
Параметр матрицы формата                 : Выборочная
Идентификатор кодека                     : XVID
Идентификатор кодека/Подсказка           : XviD
Продолжительность                        : 48 м. 29 с.
Битрейт                                  : 1933 Кбит/сек
Ширина                                   : 720 пикселей
Высота                                   : 400 пикселей
Соотношение сторон                       : 16:9
Частота кадров                           : 25,000 кадров/сек
Цветовое пространство                    : YUV
Субдискретизация насыщенности            : 4:2:0
Битовая глубина                          : 8 бит
Тип развёртки                            : Прогрессивная
Метод сжатия                             : С потерями
Бит/(Пиксели*Кадры)                      : 0.268
Размер потока                            : 670 Мбайт (91%)
Библиотека кодирования                   : XviD 73
Аудио
Идентификатор                            : 1
Формат                                   : AC-3
Формат/Информация                        : Audio Coding 3
Параметр Endianness формата              : Big
Идентификатор кодека                     : 2000
Продолжительность                        : 48 м. 29 с.
Вид битрейта                             : Постоянный
Битрейт                                  : 192 Кбит/сек
Каналы                                   : 2 канала
Расположение каналов                     : Front: L R
Частота                                  : 48,0 КГц
Частота кадров                           : 31,250 кадров/сек (1536 SPF)
Битовая глубина                          : 16 бит
Метод сжатия                             : С потерями
Размер потока                            : 66,6 Мбайт (9%)
Выравнивание                             : Разделение по промежуткам
Продолжительность промежутка             : 40  мс. (1,00 видеокадр)
Время предзагрузки промежутка            : 500  мс.
ServiceKind/String                       : Complete Main
Скриншоты
-
Если вы не можете скачать раздачу:

Если закачка не идет, добавьте в свой торрент следующие адреса пиров 10.154.25.74:59610
-
[Профиль] [ЛС]
Показать сообщения:    
Ответить на тему

Текущее время: 25-Авг 06:14

Часовой пояс: UTC + 3



Вы не можете начинать темы
Вы не можете отвечать на сообщения
Вы не можете редактировать свои сообщения
Вы не можете удалять свои сообщения
Вы не можете голосовать в опросах
Вы не можете прикреплять файлы к сообщениям
Вы не можете скачивать файлы
Sitemap