Золотая орда / Серии: 1-16 из 16 (Тимур Алпатов) [2018, драма, приключения, исторический, HDTVRip]

Ответить на тему
 
Автор Сообщение

Mithas204 ®

Пол: Мужской

Стаж: 8 лет 8 месяцев

Сообщений: 13730

Откуда: Душанбе, Курган-Тюбе

Создавать темы 14-Мар-2018 07:35

[Цитировать]

Золотая орда
Год выпуска: 2018
Производство: Марс Медиа Энтертейнмент, Амедиа Продакшн
Жанр: драма, приключения, исторический
Продолжительность: ~00:51:00 серия
Субтитры: нет
Режиссёр: Тимур Алпатов
В ролях: Александр Устюгов, Светлана Колпакова, Артур Иванов, Юлия Пересильд, Сергей Пускепалис, Владимир Верёвочкин, Сергей Гурьев, Евгения Дмитриева, Лариса Домаскина, Сергей Соцердотский, Юрий Тарасов, Аружан Джазильбекова, Дина Тасбулатова, Сабина Ахмедова, Санжар Мади, Даулет Абдыгапаров, Нафиса Хайруллина, Эльмира Калимуллина, Виктор Немец, Сейдулла Молдаханов, Турар Мураталиев, Карина Андоленко, Андрей Удалов, Анна Скиданова, Аскар Ильясов, Феруза Рузиева, Дилия Рузиева, Борис Каморзин, Василий Бочкарёв, Александр Ким
Описание: Конец XIII-го века. В столицу Руси прибывает посланник Золотой Орды — Менгу-Темир, красавец и ценитель женской красоты. Он приехал, чтобы угнать в Орду тысячи русских воинов, но готов довольствоваться лишь частью, если Великий князь Ярослав отдаст княгиню Устинью, жену его брата Бориса. Ярослав не готов нарушить законы Веры и Чести, но Борис сам идет на этот шаг, надеясь, что эта жертва обеспечит ему княжеский престол. Устинья с караваном отправляется на чужбину.
Менгу оставляет Ярославу «подарок» от Великого хана — юную Наргиз, которая пробуждает князя к жизни и ставит его перед роковым выбором. На одной чаше весов — любовь и страсть, на другой — престол и жизнь самой Наргиз, которую не принимает ни народ, ни законная жена Ярослава.

Реклама: Нет.
 
Sample
Качество: HDTVRip
Формат: AVI
Видео кодек: XviD
Аудио кодек: AC3
Видео: 720x400 (1.80:1), 25 fps, XviD build 73 ~1800 kbps avg, 0.250 bit/pixel
Аудио: 48.0 kHz, AC3 Dolby Digital, 2/0 (L,R) ch, ~ 192 kbps
Внимание! Раздача ведётся путём добавления новых серий
Раздача ведётся путём добавления новых серий, при каждом добавлении создаётся новый торрент. Чтобы начать докачку новой серии, пользователям необходимо сделать следующее:
- Остановить скачивание.
- Удалить старый торрент у себя из клиента (старые серии удалять не надо).
- Скачать новый торрент и запустить его у себя в клиенте вместо старого, при этом указать клиенту путь в старую папку куда и должно происходить скачивание новых серий.
Ваш клиент при этом должен произвести хеширование (проверку) старой папки (если не производит сам - помогите ему сделать это), и будет докачивать только те серии которых у вас ещё нет. Старые серии при этом не удаляются, а продолжают раздаваться!
Если вы уже удалили старые серии, то предотвратить повторную закачку старых серий можно, отжав галочку в соответствующих местах при запуске нового торрента. По возможности, желательно не удалять старые серии как можно дольше, чтобы релизер не столько продолжал раздавать старые серии, а смог сконцентрироваться на новых.
MI
Video
ID : 0
Format : MPEG-4 Visual
Format profile : Advanced Simple@L5
Format settings, BVOP : 1
Format settings, QPel : No
Format settings, GMC : No warppoints
Format settings, Matrix : Custom
Codec ID : XVID
Codec ID/Hint : XviD
Duration : 51mn 7s
Bit rate : 1 800 Kbps
Width : 720 pixels
Height : 400 pixels
Display aspect ratio : 16:9
Frame rate : 25.000 fps
Color space : YUV
Chroma subsampling : 4:2:0
Bit depth : 8 bits
Scan type : Progressive
Compression mode : Lossy
Bits/(Pixel*Frame) : 0.250
Stream size : 658 MiB (90%)
Writing library : XviD 73
Audio
ID : 1
Format : AC-3
Format/Info : Audio Coding 3
Mode extension : CM (complete main)
Format settings, Endianness : Big
Codec ID : 2000
Duration : 51mn 7s
Bit rate mode : Constant
Bit rate : 192 Kbps
Channel count : 2 channels
Channel positions : Front: L R
Sampling rate : 48.0 KHz
Bit depth : 16 bits
Compression mode : Lossy
Stream size : 70.2 MiB (10%)
Alignment : Aligned on interleaves
Interleave, duration : 32 ms (0.80 video frame)
Скриншоты


Последний раз редактировалось: Mithas204 (2018-03-27 06:42), всего редактировалось 3 раз(а)
[Профиль] [ЛС]

Mithas204 ®

Пол: Мужской

Стаж: 8 лет 8 месяцев

Сообщений: 13730

Откуда: Душанбе, Курган-Тюбе

Создавать темы 15-Мар-2018 06:50 (спустя 23 часа)

[Цитировать]

5 - 6
[Профиль] [ЛС]

Mithas204 ®

Пол: Мужской

Стаж: 8 лет 8 месяцев

Сообщений: 13730

Откуда: Душанбе, Курган-Тюбе

Создавать темы 16-Мар-2018 06:54 (спустя 1 день)

[Цитировать]

7 - 8
[Профиль] [ЛС]

Mithas204 ®

Пол: Мужской

Стаж: 8 лет 8 месяцев

Сообщений: 13730

Откуда: Душанбе, Курган-Тюбе

Создавать темы 20-Мар-2018 06:31 (спустя 3 дня)

[Цитировать]

9 - 10
[Профиль] [ЛС]

Mithas204 ®

Пол: Мужской

Стаж: 8 лет 8 месяцев

Сообщений: 13730

Откуда: Душанбе, Курган-Тюбе

Создавать темы 27-Мар-2018 06:47 (спустя 7 дней)

[Цитировать]

11 - 16
[Профиль] [ЛС]

Root_tj

Пол: Мужской

Стаж: 4 года 2 месяца

Сообщений: 6517

Откуда: Khujand

Создавать темы 27-Мар-2018 12:37 (спустя 5 часов)

[Цитировать]

спс
[Профиль] [ЛС]
Показать сообщения:    
Ответить на тему

Текущее время: 25-Авг 06:16

Часовой пояс: UTC + 3



Вы не можете начинать темы
Вы не можете отвечать на сообщения
Вы не можете редактировать свои сообщения
Вы не можете удалять свои сообщения
Вы не можете голосовать в опросах
Вы не можете прикреплять файлы к сообщениям
Вы не можете скачивать файлы
Sitemap