Мельник / Серии: 1-16 из 16 (Станислав Мареев) [2018, Боевик, SATRip]

Ответить на тему
 
Автор Сообщение

Mithas204 ®

Пол: Мужской

Стаж: 8 лет 8 месяцев

Сообщений: 13730

Откуда: Душанбе, Курган-Тюбе

Создавать темы 29-Май-2018 14:31

[Цитировать]

Мельник- Год выпуска: 2018
Производство: Компания "Платформа кино"
Жанр: Боевик
Продолжительность: 00:45:00
Субтитры: нет-Режиссёр: Станислав Мареев-В ролях: Сергей Шнырёв, Сергей Паршин, Александр Константинов, Роман Грибков, Игорь Черневич, Дмитрий Воробьёв (II), Сергей Гарусов, Дмитрий Гирев, Сергей Кошонин, Дмитрий Сутырин, Алексей Фокин, Егор Бакулин, Игорь Ботвин, Андрей Зибров, Виталий Коваленко, Александр Саюталин, Владимир Бирюков, Леонид Тимцуник, Евгений Капитонов, Андрей Финягин-Описание: После тяжелого ранения бывший майор Аркадий Мельник (Сергей Шнырев) дослуживает «выслугу» до пенсии в конвойных войсках ФСИН в должности начальника выездного караула. В одну из смен он сопровождает партию особо опасных преступников в специальном вагоне поезда. Остановившись на одной из станций, Мельник по служебной необходимости отлучается. В это время в вагон проникает неизвестный и, нейтрализовав конвой, освобождает 16 осужденных. Руководство ФСИН просит Мельника возглавить группу по поимке сбежавших преступников, мотивируя это тем, что расследование не должно получить огласки в прессе, так как может вызвать панику среди населения. Каждая серия посвящена поимке одного из преступников и приближает зрителя к разгадке главной тайны: кто из руководства спецслужбы коррупционер и предатель.-Сэмпл: http://multi-up.com/1199861-Автор рипа: 25Kuzmich-Качество: SATRip
Формат: AVI
Видео кодек: XviD
Аудио кодек: MP3
Видео: 720x400 (16:9), 25.000 fps, XviD, 1650 Kbps, 0.22 Bits/Pixel
Аудио: 48 kHz, MP3, 2 ch, 192 Kbps
Реклама: Нет
MI
General
Complete name : Downloads\Melnik.2018.XviD.SATRip.25Kuzmich\Melnik.e01.XviD.SATRip.25Kuzmich.avi
Format : AVI
Format/Info : Audio Video Interleave
File size : 610 MiB
Duration : 46mn 4s
Overall bit rate : 1 852 Kbps
Writing application : VirtualDubMod 1.5.10.3 | www.virtualdub-fr.org || (build 2550/release)
Writing library : VirtualDubMod build 2550/release
Video #0
ID : 0
Format : MPEG-4 Visual
Format profile : Advanced Simple@L5
Format settings, BVOP : 1
Format settings, QPel : No
Format settings, GMC : No warppoints
Format settings, Matrix : Custom
Codec ID : XVID
Codec ID/Hint : XviD
Duration : 46mn 4s
Bit rate : 1 650 Kbps
Width : 720 pixels
Height : 400 pixels
Display aspect ratio : 16:9
Frame rate : 25.000 fps
Color space : YUV
Chroma subsampling : 4:2:0
Bit depth : 8 bits
Scan type : Progressive
Compression mode : Lossy
Bits/(Pixel*Frame) : 0.229
Stream size : 544 MiB (89%)
Writing library : XviD 1.2.1 (UTC 2008-12-04)
Audio #1
ID : 1
Format : MPEG Audio
Format version : Version 1
Format profile : Layer 3
Mode : Joint stereo
Mode extension : MS Stereo
Codec ID : 55
Codec ID/Hint : MP3
Duration : 46mn 4s
Bit rate mode : Constant
Bit rate : 192 Kbps
Channel(s) : 2 channels
Sampling rate : 48.0 KHz
Compression mode : Lossy
Stream size : 63.3 MiB (10%)
Alignment : Aligned on interleaves
Interleave, duration : 40 ms (1.00 video frame)
Interleave, preload duration : 504 ms
Writing library : LAME3.99r
Encoding settings : -m j -V 4 -q 0 -lowpass 18.6 -b 192
Скриншоты
Внимание! Раздача ведётся путём добавления новых серий:
(1) остановить скачивание,
(2) удалить старый торрент у себя из клиента (старые серии удалять не надо),
(3) скачать новый торрент и запустить его у себя в клиенте вместо старого, при этом указать клиенту путь в старую папку куда и должно происходить скачивание новых серий.
Ваш клиент при этом должен произвести хеширование (проверку) старой папки (если не производит сам - помогите ему сделать это), и будет докачивать только те серии которых у вас ещё нет. Старые серии при этом не удаляются, а продолжают раздаваться!
Eсли вы уже удалили старые серии, то предотвратить повторную закачку старых серий можно, отжав галочку в соответсвующих местах при запуске нового торрента. По возможности, желательно не удалять старые серии как можно дольше чтобы релизёр не столько продолжал раздавать старые серии, а смог сконцентрироваться на новых
.


Последний раз редактировалось: Mithas204 (2018-06-08 07:29), всего редактировалось 6 раз(а)
[Профиль] [ЛС]

Mithas204 ®

Пол: Мужской

Стаж: 8 лет 8 месяцев

Сообщений: 13730

Откуда: Душанбе, Курган-Тюбе

Создавать темы 29-Май-2018 19:27 (спустя 4 часа)

[Цитировать]

3 - 4
[Профиль] [ЛС]

Mithas204 ®

Пол: Мужской

Стаж: 8 лет 8 месяцев

Сообщений: 13730

Откуда: Душанбе, Курган-Тюбе

Создавать темы 31-Май-2018 06:09 (спустя 1 день 10 часов)

[Цитировать]

5 - 6
[Профиль] [ЛС]

Mithas204 ®

Пол: Мужской

Стаж: 8 лет 8 месяцев

Сообщений: 13730

Откуда: Душанбе, Курган-Тюбе

Создавать темы 01-Июн-2018 12:11 (спустя 1 день 6 часов)

[Цитировать]

7 - 8
[Профиль] [ЛС]

Mithas204 ®

Пол: Мужской

Стаж: 8 лет 8 месяцев

Сообщений: 13730

Откуда: Душанбе, Курган-Тюбе

Создавать темы 05-Июн-2018 06:00 (спустя 3 дня)

[Цитировать]

9 - 10
[Профиль] [ЛС]

Mithas204 ®

Пол: Мужской

Стаж: 8 лет 8 месяцев

Сообщений: 13730

Откуда: Душанбе, Курган-Тюбе

Создавать темы 06-Июн-2018 07:55 (спустя 1 день 1 час)

[Цитировать]

11 - 12
[Профиль] [ЛС]

Mithas204 ®

Пол: Мужской

Стаж: 8 лет 8 месяцев

Сообщений: 13730

Откуда: Душанбе, Курган-Тюбе

Создавать темы 07-Июн-2018 06:21 (спустя 22 часа)

[Цитировать]

13 - 14
[Профиль] [ЛС]

Root_tj

Пол: Мужской

Стаж: 4 года 2 месяца

Сообщений: 6517

Откуда: Khujand

Создавать темы 07-Июн-2018 07:24 (спустя 1 час 2 минуты)

[Цитировать]

спс
[Профиль] [ЛС]
Показать сообщения:    
Ответить на тему

Текущее время: 25-Авг 06:15

Часовой пояс: UTC + 3



Вы не можете начинать темы
Вы не можете отвечать на сообщения
Вы не можете редактировать свои сообщения
Вы не можете удалять свои сообщения
Вы не можете голосовать в опросах
Вы не можете прикреплять файлы к сообщениям
Вы не можете скачивать файлы
Sitemap