Ментовская сага (Милицейская сага) / Серии: 1-11 из 12 (Петр Забелин, Жанна Коханова) [2018, детектив, криминал, SATRip]

Ответить на тему
 
Автор Сообщение

Mithas204 ®

Пол: Мужской

Стаж: 8 лет 8 месяцев

Сообщений: 13730

Откуда: Душанбе, Курган-Тюбе

Создавать темы 11-Авг-2018 09:06

[Цитировать]

Ментовская сага (Милицейская сага)
Год выпуска: 2018
Производство: "Форвард-фильм", "Прогресс-Студия"
Жанр: детектив, криминал
Продолжительность: ~00:45:00 серия
Субтитры: нет
Режиссёр: Петр Забелин, Жанна Коханова
В ролях: Дмитрий Паламарчук, Андрей Горбачёв, Андрей Гульнев, Максим Блинов, Борис Клюев, Алексей Федькин, Олег Андреев, Анна Арефьева, Олег Абалян, Герасим Архипов, Алексей Байдаков, Сергей Барабаш, Андрей Коровниченко, Наталья Мызникова, Арсений Бородин , Александр Михайлов-Уральский, Андрей Пынзару, Роберт Студеновский, Максим Студеновский, Полина Воробьёва, Сергей Интяков, Арсений Мыцык, Ирина Розанова, Сергей Макаров , Артур Литвинов, Дмитрий Половников, Илья Андрюков, Михаил Самарин, Кира Кауфман, Мария Русских, Любовь Виролайнен , Алексия Белавина, Анастасия Колдаева
Описание: Сериал о жизни целого поколения оперов, настоящих «романтиков розыска». Они пришли на работу в милицию в самом начале 90-х годов и стали непосредственными участниками сложной послеперестроечной жизни страны. В центре повествования судьбы четырех друзей, начавших свою службу в уголовном розыске одного из территориальных отделов.
Реклама: Нет.
 
- Кино-театр
Все раздачи сериала
Sample
Качество: SATRip - 25Kuzmich
Формат: AVI
Видео кодек: XviD
Аудио кодек: MP3
Видео: 720x400 (1.80:1), 25 fps, XviD build 73 ~1650 kbps avg, 0.229 bit/pixel
Аудио: 48 kHz, MPEG Layer 3, 2 ch, ~192.00 kbps avg
Внимание! Раздача ведётся путём добавления новых серий
[font-sans1]Раздача ведётся путём добавления новых серий, при каждом добавлении создаётся новый торрент. Чтобы начать докачку новой серии, пользователям необходимо сделать следующее:
- Остановить скачивание.
- Удалить старый торрент у себя из клиента (старые серии удалять не надо).
- Скачать новый торрент и запустить его у себя в клиенте вместо старого, при этом указать клиенту путь в старую папку куда и должно происходить скачивание новых серий.
Ваш клиент при этом должен произвести хеширование (проверку) старой папки (если не производит сам - помогите ему сделать это), и будет докачивать только те серии которых у вас ещё нет. Старые серии при этом не удаляются, а продолжают раздаваться!
Если вы уже удалили старые серии, то предотвратить повторную закачку старых серий можно, отжав галочку в соответствующих местах при запуске нового торрента. По возможности, желательно не удалять старые серии как можно дольше, чтобы релизер не столько продолжал раздавать старые серии, а смог сконцентрироваться на новых.[/font-sans1]
MI
General
Complete name : D:\Mentovskaya.saga.2016.XviD.SATRip.25Kuzmich\Mentovskaya.saga.e01.XviD.SATRip.25Kuzmich.avi
Format : AVI
Format/Info : Audio Video Interleave
File size : 609 MiB
Duration : 45 min 59 s
Overall bit rate : 1 852 kb/s
Writing application : VirtualDubMod 1.5.10.3 (build 2550/release)
Writing library : VirtualDubMod build 2550/release
Video
ID : 0
Format : MPEG-4 Visual
Format profile : Advanced Simple@L5
Format settings : BVOP1 / Custom Matrix
Format settings, BVOP : 1
Format settings, QPel : No
Format settings, GMC : No warppoints
Format settings, Matrix : Custom
Codec ID : XVID
Codec ID/Hint : XviD
Duration : 45 min 59 s
Bit rate : 1 650 kb/s
Width : 720 pixels
Height : 400 pixels
Display aspect ratio : 16:9
Frame rate : 25.000 FPS
Color space : YUV
Chroma subsampling : 4:2:0
Bit depth : 8 bits
Scan type : Progressive
Compression mode : Lossy
Bits/(Pixel*Frame) : 0.229
Stream size : 543 MiB (89%)
Writing library : XviD 1.2.1 (UTC 2008-12-04)
Audio
ID : 1
Format : MPEG Audio
Format version : Version 1
Format profile : Layer 3
Format settings : Joint stereo / MS Stereo
Codec ID : 55
Codec ID/Hint : MP3
Duration : 45 min 59 s
Bit rate mode : Constant
Bit rate : 192 kb/s
Channel(s) : 2 channels
Sampling rate : 48.0 kHz
Frame rate : 41.667 FPS (1152 SPF)
Compression mode : Lossy
Stream size : 63.2 MiB (10%)
Alignment : Aligned on interleaves
Interleave, duration : 40 ms (1.00 video frame)
Interleave, preload duratio : 504 ms
Writing library : LAME3.99r
Encoding settings : -m j -V 4 -q 2 -lowpass 18.6 -b 192
Скриншоты
[Профиль] [ЛС]

Mithas204 ®

Пол: Мужской

Стаж: 8 лет 8 месяцев

Сообщений: 13730

Откуда: Душанбе, Курган-Тюбе

Создавать темы 11-Авг-2018 09:15 (спустя 9 минут)

[Цитировать]

10 - 11
[Профиль] [ЛС]
Показать сообщения:    
Ответить на тему

Текущее время: 25-Авг 06:14

Часовой пояс: UTC + 3



Вы не можете начинать темы
Вы не можете отвечать на сообщения
Вы не можете редактировать свои сообщения
Вы не можете удалять свои сообщения
Вы не можете голосовать в опросах
Вы не можете прикреплять файлы к сообщениям
Вы не можете скачивать файлы
Sitemap