Судьба поэта (1959) DVDRip-AVC от New-Team

Ответить на тему
 
Автор Сообщение

Zibak ®

Пол: Мужской

Стаж: 10 лет

Сообщений: 32582

Откуда: Aden

Создавать темы 30-Окт-2018 14:08

[Цитировать]


Мы "В КОНТАКТЕ"
- Страна: СССР
Производство: Таджикфильм
Жанр: драма, биография, история
Год выпуска: 1959
Продолжительность: 01:41:45
Перевод: Не требуется
Cубтитры: нет
Оригинальная аудиодорожка: русский
Режиссер: Борис Кимягаров
В ролях:
Марат Арипов, Нозукмо Шомансурова, Абдульхайр Касымов, Махмуд Тахири, Абдулхамид Нурматов, Дильбар Касымова, Ходжакули Рахматуллаев, София Туйбаева, Шамси Джураев, Мухаммеджан Касымов, Г. Ниязов, К. Мирзоев, Захир Дусматов, Абдусалом Рахимов, Алим Ходжаев, Бахтали Сабзалиев, Анвар Тураев, Сталина Азаматова...
Об актёрах подробней
Описание:
О жизни и деятельности таджикского поэта Рудаки (ок. 860-941), родоначальника поэзии на фарси.
Когда Рудаки пришёл ко двору эмира Насра Второго, он был молод, но его стихи уже знали многие. Ведь он писал о том, что близко каждому - о любви, верности, дружбе, о прекрасной родной земле, - и писал на таджикском языке, понятном всем простым людям.- -Исходник: DVD5 R5
Качество видео: DVDRip-AVC
Формат видео: MKV
Видео: 704->761х572 (4:3), 25 fps, H264 ~ 1338 kbps avg, 0.133 bit/pixel
Аудио: 48 kHz, Dolby Digital AC3 2.0, 192 kbps
Раздача от:
MediaInfo
Общее
Полное имя : Sudba.poyeta.1959.DVDRip-AVC_[New-team]_by_AVP_Studio.mkv
Формат : Matroska
Версия формата : Version 2
Размер файла : 1,09 Гбайт
Продолжительность : 1 ч. 41 м.
Общий поток : 1532 Кбит/сек
Дата кодирования : UTC 2017-11-09 23:53:58
Программа кодирования : mkvmerge v6.1.0 ('Old Devil') built on Mar 4 2013 09:10:42
Библиотека кодирования : libebml v1.3.0 + libmatroska v1.4.0
Видео
Идентификатор : 1
Формат : AVC
Формат/Информация : Advanced Video Codec
Профиль формата : High@L4.1
Параметр CABAC формата : Да
Параметр RefFrames формата : 10 кадров
Идентификатор кодека : V_MPEG4/ISO/AVC
Продолжительность : 1 ч. 41 м.
Битрейт : 1338 Кбит/сек
Ширина : 704 пикселя
Высота : 572 пикселя
Соотношение сторон : 4:3
Режим частоты кадров : Постоянный
Частота кадров : 25,000 кадров/сек
Цветовое пространство : YUV
Субдискретизация насыщенности : 4:2:0
Битовая глубина : 8 бит
Тип развёртки : Прогрессивная
Бит/(Пиксели*Кадры) : 0.133
Размер потока : 953 Мбайт (85%)
Библиотека кодирования : x264 core 130 r2273 b3065e6
Настройки программы : cabac=1 / ref=10 / deblock=1:-2:-1 / analyse=0x3:0x113 / me=umh / subme=10 / psy=1 / psy_rd=1.00:0.00 / mixed_ref=1 / me_range=32 / chroma_me=1 / trellis=2 / 8x8dct=1 / cqm=0 / deadzone=21,11 / fast_pskip=1 / chroma_qp_offset=-2 / threads=6 / lookahead_threads=1 / sliced_threads=0 / nr=0 / decimate=0 / interlaced=0 / bluray_compat=0 / constrained_intra=0 / bframes=8 / b_pyramid=2 / b_adapt=2 / b_bias=0 / direct=3 / weightb=1 / open_gop=0 / weightp=2 / keyint=250 / keyint_min=25 / scenecut=40 / intra_refresh=0 / rc=2pass / mbtree=0 / bitrate=1338 / ratetol=1.0 / qcomp=0.60 / qpmin=0 / qpmax=69 / qpstep=4 / cplxblur=20.0 / qblur=0.5 / ip_ratio=1.40 / pb_ratio=1.30 / aq=1:1.00
Default : Да
Forced : Нет
Аудио
Идентификатор : 2
Формат : AC-3
Формат/Информация : Audio Coding 3
Параметр Endianness формата : Big
Идентификатор кодека : A_AC3
Продолжительность : 1 ч. 41 м.
Вид битрейта : Постоянный
Битрейт : 192 Кбит/сек
Каналы : 2 канала
Расположение каналов : Front: L R
Частота : 48,0 КГц
Частота кадров : 31,250 кадров/сек (1536 SPF)
Битовая глубина : 16 бит
Метод сжатия : С потерями
Размер потока : 140 Мбайт (13%)
Default : Да
Forced : Нет
Скриншоты
[Профиль] [ЛС]
Показать сообщения:    
Ответить на тему

Текущее время: 01-Ноя 19:03

Часовой пояс: UTC + 3



Вы не можете начинать темы
Вы не можете отвечать на сообщения
Вы не можете редактировать свои сообщения
Вы не можете удалять свои сообщения
Вы не можете голосовать в опросах
Вы не можете прикреплять файлы к сообщениям
Вы не можете скачивать файлы
Sitemap