Померкнет свет / All Light Will End (2018) WEBRip 720p | L2

Ответить на тему
 
Автор Сообщение

Grandfather61 ®

Пол: Не указан

Стаж: 6 месяцев 25 дней

Сообщений: 293

Создавать темы Сегодня, в 18:51

[Цитировать]


Информация о фильме
Название: Померкнет свет
Оригинальное название: All Light Will End
Год выхода: 2018
Жанр: Ужасы, триллер
Режиссер: Крис Блейк
В ролях: Энди Бакли, Сара Батлер, Кэти Гарфилд, Джон Шак, Сэм Джонс III, Александра Харрис, Джеймс Фуертес, Аарон Муноз, Билл Билльонс, Тед Уэлш
О фильме:
Когда своенравная молодая писательница, скрывающая мрачную тайну, возвращается домой на выпускной брата, ее преследует прошлое и мучают зловещие ночные кошмары.

Страна: США, Red Vessel Entertainment,Elevating Entertainment,Movie City Films
Продолжительность: 01:24:40
Перевод: Любительский (двухголосый закадровый) | HiWay Grope
Файл
Кодек: MPEG-4 AVC/x.264
Качество: WEBRip 720p
Видео: 1280x634, 23.976 fps, ~2953 kbps, 0.152 bit/pixel
Звук:
Аудио rus: AC3, 48 kHz, 2 ch, 192 Kbps
Субтитры: отсутствуют
Реклама: присутствует
Семпл
MediaInfo:
General
Unique ID : 193129650888256285092717282993831175832 (0x914B6AF3987C3823BC9C0BB462CC6698)
Complete name : D:All.Light.Will.End.2018.720p.WEBRip.HiWayGropeAll.Light.Will.End.2018.720p.WEBRip.HiWayGrope.mkv
Format : Matroska
Format version : Version 4 / Version 2
File size : 1.86 GiB
Duration : 1 h 24 min
Overall bit rate mode : Variable
Overall bit rate : 3 147 kb/s
Encoded date : UTC 2018-11-09 13:18:03
Writing application : mkvmerge v17.0.0 ('Be Ur Friend') 64-bit
Writing library : libebml v1.3.5 + libmatroska v1.4.8
Video
ID : 1
Format : AVC
Format/Info : Advanced Video Codec
Format profile : High@L5
Format settings : CABAC / 4 Ref Frames
Format settings, CABAC : Yes
Format settings, RefFrames : 4 frames
Codec ID : V_MPEG4/ISO/AVC
Duration : 1 h 24 min
Bit rate mode : Variable
Bit rate : 2 953 kb/s
Maximum bit rate : 12.0 Mb/s
Width : 1 280 pixels
Height : 634 pixels
Display aspect ratio : 2.019
Frame rate mode : Constant
Frame rate : 23.976 (24000/1001) FPS
Standard : NTSC
Color space : YUV
Chroma subsampling : 4:2:0
Bit depth : 8 bits
Scan type : Progressive
Bits/(Pixel*Frame) : 0.152
Stream size : 1.75 GiB (94%)
Language : English
Default : Yes
Forced : No
Color range : Limited
Color primaries : BT.709
Transfer characteristics : BT.709
Matrix coefficients : BT.709
Audio
ID : 2
Format : AC-3
Format/Info : Audio Coding 3
Codec ID : A_AC3
Duration : 1 h 24 min
Bit rate mode : Constant
Bit rate : 192 kb/s
Channel(s) : 2 channels
Channel positions : Front: L R
Sampling rate : 48.0 kHz
Frame rate : 31.250 FPS (1536 SPF)
Bit depth : 16 bits
Compression mode : Lossy
Stream size : 116 MiB (6%)
Service kind : Complete Main
Default : Yes
Forced : No
Скриншоты
Релиз от: HiWay Grope
[Профиль] [ЛС]
Показать сообщения:    
Ответить на тему

Текущее время: 09-Ноя 23:24

Часовой пояс: UTC + 3



Вы не можете начинать темы
Вы не можете отвечать на сообщения
Вы не можете редактировать свои сообщения
Вы не можете удалять свои сообщения
Вы не можете голосовать в опросах
Вы не можете прикреплять файлы к сообщениям
Вы не можете скачивать файлы
Sitemap